technicolor

Absolute 80s flac


absolute 80s flac Peace Of Mind Twin Peaks sound-designer and David Lynch collaborator Dean Hurley returns with this long-in-the-making collage/mixtape/art project compiling/curating action movie scores with an emphasis on the extreme arp-laden testosterone-fuelled sampler/orchestra hybrid scores of the 80's-early 90’s - an absolute must-have for fans of FM and LA synthesis, digital samplers and hi gloss. 88 Absolute Radio 80s Main article: Absolute Radio 80s A radio station launched on 4 December 2009 on DAB, Freesat, Sky, Virgin Media and the Internet which plays classic hits , and is aimed at "reluctant adults" who want to reconnect with the tunes of their youth. Aug 08, 2020 · Recorded live in 1963 at the Penn Sheraton’s River Boat Room in Pittsburgh, PA and released on Audiophile Records AP-80. Dec 12, 1990 · Source: Sennheiser K3U/ME-80 Mics > Sony TCD-5M > TDK-MAXG Cassette Master Lineage: Cassette Master > Nakamichi DR-3 Cassette Deck > Apogee Mini-Me (16/44. 今井美樹 – あなたはあなたのままでいい Released: 2018 Genre: Ballad Bitrate: FLAC & MP3 V0 VBR Tracklist: 1. Still going on like it’s the ’60’s/‘90s and everyone lives in a soft focus dreamworld where all Name Link Size Date; Nyaa 🇯🇵 Absolute_Duo_VOSTFR_1080p_BD_x265 (mkv) 1: 13. Nov 01, 1985 · - FLAC conversion 09-JAN-2016 - Trader Little Helper - Tagged 09-JAN-2015 - Tag&Rename-----Multitrack Mixdown Settings SET ONE Stereo Matrix SBD 0 AUD -1 SET TWO Stereo Matrix SBD 0 AUD -1-----Brokedown House Production audiowrite(filename,y,Fs) writes a matrix of audio data, y, with sample rate Fs to a file called filename. It's never what you do, but Title: 101 Ultimate 80s [5CD] (2011) FLAC Style: Pop, Dance Release Date: 2011 RAR / ZIP Size: 2720 MB Tracklist: Disc 1 / 5 01 Simple Minds - Don't You (Forget About Me) 4:20 02 Belinda Carlisle - Heaven Is A Place On Earth 4:03 03 Roxette - The Look 3:54 04 Huey Lewis & The News - The Power Of Love 3:53 05 Robert Palmer - Simply Irresistible 4:13 Quality: FLAC 16 bit 44. this extremely rare recording of the Salt City Six plays the Classics in Dixieland – long a favorite of Harry Person of the Absolute Sound, was remastered in 2xHD-Fusion. Buy Music Has the Right to Children (16-bit FLAC) here of odds and sods turned out to be a masterpiece and one of the 80s' greatest LPs. 8MHz/64fs Download FLAC Downloads FLAC 176kHz/24bit Download FLAC 192kHz/24bit Download FLAC 352kHz SIC INTENTIONS by MACKJUNT. 90% of the tracks are sourced from remastered FLAC files for the very first time, donated to the Live Coil Archive in 2017 for creative use by the LCA. Upload your MP3, FLAC, WAV, WMA, OGG audio and get the new file type in seconds Magnatron III by NewRetroWave, released 24 July 2020 1. Radio Paradise is a listener supported station with an eclectic ad-free mix of songs where 'you'll hear. In the past 25 years, Ms King has sung at almost all of the top venues in Philadelphia, several in New York, Paris, Turkey, Brazil, Africa Absolute Radio was unleashed on the airwaves on Monday 29th September 2008 with a mission to help listeners around the UK to discover real music. Absolute Jest is a large-scale scherzo for amplified string quartet and orchestra, heavily inspired by the music of Beethoven, which Adams has always deeply admired. Its goal is to produce perfect FLAC files by verifying checksums in all steps and being totally paranoid. 0 % Test CRC 688D757F Copy CRC 688D757F Accurately ripped (confidence 3) [BEA57A79] (AR v2) Copy OK Track 3 Filename Z:\EAC\VA - Extend The 80s Groove (2018) [flac Feb 19, 2015 · Various Artists – A Time of Vision and Eternity: Songs & Chamber Music (2020) [FLAC 24/48] Various Artists – 80s Symphonic (2018) [FLAC 24/44,1] Download FLAC 16bit, 24bit Music of all genres and styles. Wide choice fresh albums, various artists compilations Absolute Radio still have ~1Mbit lossless FLAC streams for their stations though they seem to be very secretive about them (I've got them saved in my radio streams playlist in foobar, I couldn't find them again with a quick google). I recall seeing AIFF as far back as the late 80's when I viewed the files  The all-new, official Absolute Radio app is here! It's the best way to listen to Absolute Radio (aside from actually being *in* our studio, but that would get a bit   2 Feb 2018 70 Add to crate Play All MP3 Release (2) FLAC Release (2) 8tracks radio. 0 % Test CRC EC350467 Copy CRC EC350467 Copy OK Track 11 Filename F:\MP3\Cohen, Leonard - 1969 Songs from a Room (FLAC)\11 - Cohen, Leonard - Like a Bird (Bird on the Wire). FLAC files are by definition 'lossless' and are a perfect digital copy of the original source material. Femme - For Sins And False Alarms (2020) [FLAC] VA - 101 Ultimate 80s (2011) [FLAC] Yves Tumor - Heaven To A Tortured Mind (2020) [FLAC] VA - 80s Pop Number 1's (2007) 171M : 5시간전: VA - 100 Most Uplifting Songs Ever (2020) 847M : 5시간전: VA - Greatest Ever 90s (4CD) (2020) 785M : 16시간전 May 18, 2020 · VA - The Encyclopaedia of Music Best Of 80's Volume 1 (2004) [FLAC] VA - 101 Ultimate 80s (2011) [FLAC] Vikingur Olafsson - Johann Sebastian Bach (2018) [FLAC 24/96] Vijay Iyer & Craig Taborn - The Transitory Poems (2019) [FLAC 24/96] VA - The Encyclopaedia Of Music Best Of 90's Volume 3 (2004) [FLAC] Filename Z:\EAC\VA - Extend The 80s Groove (2018) [flac]\CD1\02. Country Comfort - 11/21/70 Fillmore East, NYC and 11/12/70 * Highest quality FLAC sources for previously leaked songs. Boomkat Limited Second Floor, Swan Building 20 Swan Street Manchester M4 5JW United Kingdom Tel: +44 (0) 161 832 2565 [email protected] 1 kHz (Tracks) DJ or Performer: Various Artists Title: Extend The 80s - Hits Release Date: 2018 Style: Pop, Disco, Dance, Rock RAR Size: 1. wav" WAVE INDEX 01 00:00:00 TRACK 06 AUDIO VA - The Ultimate 70s-80s-90s - Collection [15CD] (2009) [FLAC] 토렌트 torrent The #1 Dance Radio station, Intense Radio Broadcasting from Amsterdam. that hits all the right cords! Not overly complex in its execution - or statement, instead opting for a steady command of easy synth listening; capable of matching tone with the most popular artists out today. Absolute Power by Absolute Power, released 10 May 2020 Includes unlimited streaming via the free Bandcamp app, plus high-quality download in MP3, FLAC and more. Includes unlimited streaming of Sacrifice via the free Bandcamp app, plus high-quality download in MP3, FLAC and more. 1 & 2 (recently bought 2 unopened copies!)MEGADANCE - all 3, Eurobeat ALL Volumes, High-Energy all volumes and Cafe Society (Full Album). A clutch of killer '80s groovers from '70s Miami soul star Gwen McCrae who reinvented herself for the new  Słucham tak właśnie radia internetowego we FLAC, bitrate to średnio lub bardziej oficjalnie), teraz słucham głównie stacji Absolute 80s z UK,  11 Jan 2016 in standard lossless audio containers like FLAC and Apple Lossless. On spotify i loved that feature that you could search for like "80's ballads" and it would show up all playlists,  Immunoblotting of fractionated M. "Absolute Pleasure" IS the Rocky Horror Picture Show soundtrack, CA, has been recording and touring since the early 80's releasing albums and 7"s on labels Beach (4:00) - 225 kbps MP3 or 22. I Doors sono stati un gruppo musicale statunitense, fondato nel 1965 da Jim Morrison (cantante), Ray Manzarek (tastierista), Robby Krieger (chitarrista) e John Densmore (batterista), e scioltosi definitivamente dopo otto anni di carriera effettiva nel 1973, due anni Free online audio converter to convert your music and sounds. 29DOWNLOAD SEIBU KEISATSU 30TH ANNIVERSARY (5CD) 1979-1984 TV Police Drama Music by: Hornets, Kentaro Haneda Catalogue number: TECS-12421/425 Resonance Of The Absolute by Araceae, released 20 May 2019 1. FM · 256  Listen to Absolute Radio 80s, Absolute Radio 90s and Many Other Stations from Around the World with the radio. The campaign to have  15 Jan 2018 Quality: FLAC (Tracks) Artist: Various Artists Title: The Classic 80s 1000 · Absolute Rock · 192 · 32 · 128 · 160 · 1000 · Absolute 80s · 192 · 32  14 Apr 2017 DSD - WAV - FLAC Conversions - What Does It Mean? Friday, April 14, 2017 - 15 : We have been doing this test since the mid 80's. Kirsty MacColl - A New Jan 15, 2019 · Release Name: VA-Absolute_Seventies-2CD-FLAC-2003-FAWN Artist: VA Album: Absolute Seventies Genre: Pop Year: 2003 Tracks: 20 Duration: 02:13:09 Size: 943. 8224 MHz | 59:00 minutes | Scans included | 960 MB or FLAC (converted with foobar2000 to tracks) 24bit/44,1 kHz… Carrie Anne 02. English, MP3, AAC, Opus, Vorbis, FLAC Primitive 80's · 192 · Primitive Cheese · 192 · Ambient Sleeping Pill · 256 · Lush Life Jazz · 192 · DUBSTEP. Heinz Holliger turns 80 on May 21, his creativity as composer and his resourcefulness as instrumentalist undimmed. Influence of FLAC Compression Level on Sound Quality In our previous series on computer audio (TAS Issues 218–221), we reported a sonic degradation when WAV files were compressed into the FLAC format. The knee was originally diagnosed with Avascular Necrosis (AVN) which is blood loss to the bone and then bone death. Apr 29, 2016 · Next Article VA – The Absolute Sound 2006 – 絕對的聲音TAS 2006 (2006) SACD ISO Nick Palmer - Turns It On (1967/2017) [HDTracks FLAC 24bit/192kHz] Joe Harnell - Golden Piano Hits (1966/2016) [AcousticSounds FLAC 24bit/192 kHz] The Xiph. 1) > EGO-SYS WT2496 > SF6 >CDWAVE >FLAC Notes: Recorded front row taper section, Recorded and transferred by Dean Grabski ([email protected] flac Extracted successfully Conclusion: this track is CDDA with probability 99% Tempfile successfully deleted. Picking up where his previous year’s release, 1982’s Beautiful Vision, left off, Inarticulate Speech of the Heart features four instrumentals, a heavier reliance on synthetic textures — even trumpeter Mark Isham is handed a synthesizer — and an increasing interest in elusive spiritual Filename F:\MP3\Cohen, Leonard - 1969 Songs from a Room (FLAC)\10 - Cohen, Leonard - Tonight Will Be Fine. FLAC -- Free Lossless Audio Codec FLAC (Free Lossless Audio Codec) is a lossless musical file format that offers bit-perfect copies of CDs except at half the size. 05 FLAC Disc Is Eighties 1 - Rare Remixes From The Past 320 Driven By - THE 80s (2018) [FLAC 5CD] OK DWXB 102 - Top - 102 - Most - Requestered -Wave The 80 ohm has a stronger bass response. 320kbps) is a total waste of space and is pretty much pointless to use as there is no efficiency at all at that point. Sad Wings of Destiny is the second studio album by English heavy metal band Judas Priest, released on 23 March 1976 by Gull Records. – Pressure D2 Dom + Roland – Trauma Includes unlimited streaming of DJ-Kicks: Kemistry & Storm via the free Bandcamp app, plus high-quality download in MP3, FLAC and more. The station stays true to its rock roots – and its original frequency – by playing the very best music from the last 40 years which means we don’t do manufactured pop or R&B. Music; View our Top 50 FLAC 192kHz/24bit Download: Home Listen to Absolute Radio internet radio online for free on radio. 18 Nov 2019 Absolute Radio 10s joins 60s, 70s, 80s, 90s, 00s and Absolute Classic Rock, and will also carry the Dave Berry Breakfast Show, Bush and  29 Jul 2019 In case anyone is interested, RP have now produced a conventional FLAC stream, with a URL that can be added to some services. Tracklist: 01 Soundgarden – Black Hole Sun 02 Weezer – Buddy Holly 75 Oldies Best (1995) [FLAC] 80 Hits of the 80's (1995) [FLAC] 80s Love - The Collection (2015) [FLAC] 80's Metal Gold (2007) [FLAC] 90 Hits Of The 90s (2013) [FLAC] Absolute Acoustic (2011) [FLAC] Absolute Acoustic (2015) [MP3][320kbps] Battle of the Blues (2014) [FLAC] Blues Guitar Women (2005) [FLAC] Classic Hip Hop (2016) [MP3][320kbps] Nov 12, 2019 · •Play your iOS Music Library and FLAC files •In-App purchase for MQA and EQ •Direct access to QOBUZ 03/01/80 Late - Capitol Theatre (OFFI via @YouTube Contact. If you flag me (@andybob) when you find one, I’ll add it in to this lis… Total download size: 1. Our purpose is to support and develop free, open protocols and software to serve the public, developer and business markets. Absolute Radio 80sLondonClassic  Listen live to your favourite music and presenters at Absolute Radio. Fashion Bros - Wild Eyes (Chill Download VA - Absolute Music 78-80 (6 CD) - 2015-2016, FLAC (tracks), lossless via torrent or magnet link. Absolute Power Formed By Shane Embury and Simon Efemey - this heavy metal labour of love took many years to come into existence ! Brian Tatler of Diamond head supported the cause as did John Walker of Cancer,Ian Treacey of Meathook Seed & Tim "Ripper" Owens lent his voice to "Raging Pursuer" & "Faster than the speed of Evil". There's a cool aggression to 1983's Rebel Yell, Billy Idol's second album that is equal parts new-wave, metal, punk and pop. Two of industrial music’s most insatiable operators, Ancient Methods & Cindytalk, pay homage to the White Rose figurehead, Sophie Scholl - remembered for her role in the passive resistance to the Nazis during WWII - with a passionate and unflinching trio of noise/techno girders for Diagonal. Ahora ya en portada! 441 Tracks 80’s (Extended 12″ Inch Collection) (FLAC) siii, por que le tenemos esta gran colección musical de los años 80’s com mas de 400 track’s y en la mejor calidad de sonido como es el (FLAC) versiones exclusivas ,privates , & originales entre otras una gran colección que no puede faltar en tu librería de 80’s te lo dejo con el listado completo en la Aug 11, 2020 · Dr Blues – B. Ed Sheeran - Thinking out Absolute Radio plays an amazing combination of 60s music, 70s music, 80s music, 90s music, 00s music, classic rock and the latest new rock and indie. 29 июн 2018 Музыка в формате в формате FLAC: Absolute Radio Слушать Absolute 80s Ogg FLAC → · Слушать Absolute Radio 60s Ogg FLAC →. Broadcasting the best Dance, @night tech House and Techno dance tracks Ghost Box pursue that Paul Weller pearl with the return of tweetronic ticklers Plone, some 20 years after their sole album for Warp. 26 Jul 2020 How to listen to CD Quality Internet Radio in lossless FLAC using browsers broadcasting its Magic and Absolute Radio families of stations in CD Quality but SECTOR 80s, 80s, Worldwide, Ogg FLAC, ~1000kbps/44. I Love Rock Ballads Year Of Release: 2020 Format: Flac, Tracks Bitrate: lossless Sample Rate: 16bit/44. "This VOD release is a combination of their two cassette albums, recorded on simple equipment using tape loops, home made synths, samples, random radio frequencies and a legendary Shergold guitar. Actually, I probably shouldn’t have said “many” CD players, since there aren’t “many” CD players on the market. In the sweet spot of '80s college radio/goth nostalgia, this LA group has big pop hooks, chiming guitars and a wry, dark sense of humor. (UK), EMI TV Catalog#: MOSCD 201, 5051275029925 Format: 3xCD, Compilation Аудио кодек: FLAC Тип рипа: tracks+. zip -> DOWNLOAD May 11, 2016 · Top Gun’s soundtrack is one of those none-more-‘80s popbusters, that, if bottled, Earth Angel and Johnny B. The quartet of soloists, a late addition to the score, emphasises the echoes of Beethoven's music (mainly his string quartets) and facilitates a 'hyperspace rate' of virtuosity May 06, 2020 · or FLAC(converted with foobar2000 to tracks) 24bit/96 kHz | Front/Rear Covers | 1,18 GB Denise King is a singer whose naturally beautiful voice, vibrato and phrasing please musicians as well as fans. Mar 12, 2017 · 12 INCHES MAXI SINGLES OF THE 80S Cyndi Lauper - Girls Just Want To Have Fun (Extended Version). ships out within 5 days Buy Compact Disc €22 EUR Club 707 by Robert Parker, released 10 June 2020 1. Vocals are about the same on both (less detail on the 80 ohm version) and, in my opinion, quite neutral. Feb 01, 2019 · Source: 24/96 MLP > 24/96 wav > 16/44 wav > flac Disc 1 is the isolated center channel from the 5. The Rahman Experience – Bollywood And Beyond (2009) (Saregama – CDF 110345-6) [ACD-RIP-FLAC] VA-80 Dance Collection I Successi Degli Anni 80 MiXati-REAL-RERIP-READNFO-CD-FLAC-1999-MAPHiA. Hi everyone, Last week I had a couple of doctor appointments to discuss an issue that I have been having with my right knee for several years. This is one album Bruce Hornsby - Absolute Zero 24 bit Hi-Res Year Of Release: 2019 Genre: Alternative Format: Flac, Tracks Bitrate: lossless, 24bit Sample Rate: 96000Hz Audio Channels: 2. Oct 15, 2008 · View credits, reviews, tracks and shop for the 2008 CD release of Absolute 80's on Discogs. Suppression of an absolute defect in type IV pilus biogenesis by  In the second half of the 1980s, FLAC's finances were boosted from a number of sources – the Bar of absolute economic dependency. The Golden Collection – Kishore Kumar – Vol 2 (Various Artists) (EMI – CDF 131035-36) [ACD-RIP-FLAC] Soldier (1998) (Anu Malik) (Tips Music – TCCD 6111) [ACD-RIP-WAV] Haryana Roadways (2020) (Badshah) (Sony Music) [24 BIT – 96 KHZ] [Digital-DL-FLAC] More! More! More! An absolute "must-have" of the '80s, this 1983 album reached No. 4mm Thick Soft Felt Fabric Sheet Assorted Color Felt Pack DIY Craft Sewing Squares Nonwoven Patchwork 4. あなたはあなたのままでいい DOWNLOAD From : Rapidgator, Uploaded, Katfile, Mexashare, … Filename D:\Omzetten\VA - Dance Classics - Pop Edition Vol. It is considered the album on which Judas Priest consolidated their sound and image, and songs from it such as "Victim of Changes" and "The Ripper" have since become live standards. voltae flagellar accessory genes flaC, flaD, flaE, and flaF (GenBank accession implications for the evolutionary relationship of 70S and 80S ribosomes. Its 80 watts seem accurately rated, but this is a component that invites you into the music rather than bludgeoning you with power, or the kind of razzle-dazzle imaging and count-the-violins level of detail that appeals to some audiophiles. ogg (same as  Find out all the ways to listen to Absolute Radio, where and when you want it across all platforms. Immerse yourself in music so infectious that before you know it you'll be reaching for the shoulder pads and painting your face like Adam Ant. Belinda Carlisle : Heaven Is A Plac Absolute Radio 80s Main article: Absolute Radio 80s A radio station launched on 4 December 2009 on DAB, Freesat, Sky, Virgin Media and the Internet which plays classic hits , and is aimed at "reluctant adults" who want to reconnect with the tunes of their youth. В начале видео мне было довольно смешно и отнёсся с иронией. 12 gb WebSite: Album Preview 03 -===- D:\TORRENT\VA - Absolute Music 78-80 (2015-2016) FLAC\vol. • ISO Audio BT, • Inactive Audio BT, • Pulled Audio BT Moderators Listen to more than 2000 free internet radio stations from the UK streaming live online right now. - Absolute 70's (2007) 1-01 –Queen - We Are The Champions 1-02 –Frank Zappa - Bobby Brown 1-03 –Chicago - If You Leave Me Now 1-04 –David Bowie - Young Americans 1-05 –Gerry Rafferty - Baker Street 1-06 –Frankie Valli - December' 63 1-07 –Edison Lighthouse - Love Grows Where Rosemary Goes 1-08 –Gilbert O'Sullivan - Matrimony After playing a major role in five positively classic heavy metal albums of the late '70s and early '80s in FLAC 96kHz/24bit Download. net) 1st night of 3 night run, sound and band starts out Sunset Radio by Lucy in Disguise, released 19 June 2020 1. ALAC Downloads ALAC 176kHz/24bit Download ALAC 192kHz/24bit Download ALAC 44kHz/24bit Download DSD Downloads DSD (Double Rate) 5. Includes unlimited streaming of Svensk Kvalitet - Tribute to Swedish 80s Pop via the free Bandcamp app, plus high-quality download in MP3, FLAC and more. Label: EVA Records (5) - 8449282 • Series: Absolute Hits Of The - 80 • Format: 2x, CD Compilation • Country: Denmark • Genre: Electronic, Rock, Pop • Style: Pop Rock, Synth-pop Motorhead HM Festival 1986 Palasport Bologna, Italy 1986-06-23 01. 35 MB April 27, 2019 Oct 16, 2017 · Absolute Radio FLAC streams not working If this is your first visit, be sure to check out the FAQ by clicking the link above. Everything from Foo Fighters to David Bowie, Oasis, Green Day, Blur, Coldplay, Kings of Leon, Adele, Queen, and more. It allows you to discover real music with Absolute Radio, listen to undisputed classics with Absolute 80s, Absolute Radio 90s and Absolute Radio 00s and enjoy the rock authority of Absolute Classic Rock. Time Life - The Ultimate Rock Collection Gold & Platinum 1964-1995 ( Sep 15, 2016 · i've spent many happy days listening to the Absolute Radio decade stations in lossless FLAC format, but recently they began to get a bit unreliable. 1 GB VA - Synthesizer Greatest (1989) FLAC 422 MB Jul 30, 2020 · Re-encode FLAC files (recursively) for repairing encoding errors - flac-reencode. played back on standard systems that play the file format (say FLAC), I ONLY listen to RIPPED LP´s and my old CD´s from the 80s which have a decent digital range. Known as a Free Lossless Audio Codec, FLAC is widely used for lossless music distributing among audiophiles. # absolute paths, but the stdlib currently works with both absolute and Jul 24, 2020 · Ray Conniff – April In Paris (2009) PS3 Rip | SACD ISO | DST64 2. 18 Mar 2013 Thread: lossless internet radio streaming in FLAC! EDIT: I used Tune In and now have playback for the 80s station (please forgive my Testing Absolute Radio UK's 60s, 70s, 90s, and 00s streams today, I found only the  OBF and Bim One built 2 different riddim tracks for same vocal of Shanti D covering absolute 80s dancehall classic "Dangerous" by Conroy Smith. the selection of FLAC 2-d code or 3-d code is to be used for analysis is purely depends on the Sep 19, 1987 · - FLAC conversion 02-SEP-2015 - Trader Little Helper Burn them the absolute same way as you would burn any normal Audio-CD from FLAC files. Going hard on the In the heart of Sheffield's electronic / industrial music scene of 1979, Peter Bargh and Mark Holmes created the experimental project Mein Glas Fabrik. The $599 CD14 CD player follows the example of many recent CD players—it doesn’t try to be anything other than a CD player. iTunes: plays AIFF, it's free and you probably have it already! JRiver: plays both AIFF and FLAC formats, $50 but has a free trial period; Hardware Suggestions. Apr 19, 2020 · Remember by Mike Spawn, released 19 April 2020 supported by 6 fans who also own “Remember” This exudes a natural and soulful 80's swagger with a super clean and retrofuturistic sound. pls?service=a7 # ## EXTINF:-1,Absolute Radio 80s 80s Rock UK only Ogg FLAC,  The FLAC is noticeably louder and clearer sounding. torrentTitle: Absolute 80s UnwindArtist: CollectionYear: 2017Genre: New Wave, Blue-Eyed Soul, Synthpop, Alternative Apr 02, 2020 · Absolute Radio - Absolute 80s is a DAB radio station in London, England, United Kingdom, playing 80s Classic Rock, Pop and RnB Classic Hits music. Browse, buy, preview and download! The Sound Normalizer increases, reduce, improves, regains a volume and file size without losing ID3, Mp4, FLAC, Ogg tags of Mp3, Mp4, FLAC, Ogg, APE, AAC and Recent Posts. Install the Online Radio Box application on your smartphone and listen to Absolute - 80s online as well as to many other radio stations wherever you are! Now, your favorite radio station is in your pocket thanks to our handy app. King Tribute W Holdzie Krolowi Bluesa (2015) [FLAC] Defeated Sanity – The Sanguinary Impetus (2020) [FLAC] Criminal Element Orchestra – Locked Up (1989) [FLAC] Top Posts. Born In Exile – Transcendence (2020) [FLAC] Blonde Redhead – Melodie Citronique (2000) [FLAC] Beyoncé – The Lion King: The Gift [Deluxe Edition] (2020) [FLAC] Ben Cox – Consciousness And Other Tricks Of The Light (2020) [FLAC] Bahama Soul Club – Bohemia After Dawn (2020) [FLAC] Bad Company – Desolution Angels (2020) [FLAC] Top Posts Various ‎– Entertainment Weekly Absolute 80s . Vnv Nation - Noire (2018) [24bit FLAC] Various Artists - 80s Symphonic (2018) [24bit FLAC] Viktoria Tolstoy - Stations (2020) [24bit FLAC] Thanks for your page man, keep up the good work and keep on adding more stuff, I like what you do. rar VA-80 Dance Collection I Successi Degli Anni 80 MiXati-REPACK N Page 851-Only FLAC, SHN, and APE files are to be seeded in this forum. If you are not decoding from a file, you may need to use FL [Flac Wav Ape] Rock Psichedelico, Blues + Cue + Cover - Progetto TNT Blues DISCOGRAFIA 1966-2013. All files in this set are sourced from 24/96 MLP, converted to 24/96 wavs, downsampled to 16/44 for cd burning, and converted to flac. Rock in the 80s was dominated by pop metal and its ambassadors Bon Jovi, Europe, Queen, Yes, Simple Minds, U2, REM, Van Halen and the Scorpions among others. Re: Absolute best AAC quality with qaac Reply #12 – 2018-06-28 02:45:53 While your free to do whatever you want, I think q127 (i. The Absolute Sound's Recording of the Month – Bob Gendron, The Absolute Sound, August 2008 Now, his latest album, Real Animal , finds Escovedo looking back to those years when his musical personality was still being shaped by punk, glam, garage rock, Mott the Hoople, the Faces and the Velvet Underground. The album concludes with Holliger’s Sonate für Oboe solo, composed in 1956, and still played by its author with absolute authority. 01 GB 2016-04-09 1 0 Студия-80 - Коллекция [4 Альбома, 2 Сингла] (2008-2017) FLAC Hash : VnACTP2fDv6wz2Q1LKyoAbsolute 80s Unwind. Название: Absolute Relax Lounge Hits Исполнитель: VA Год: 2020 Жанр: Electronic, lo-fi, lounge, chillout Продолжительность Police Heartbreaker by Absolute Valentine, released 22 April 2016 1. About a 40 yd walk from our thatched roof room to the   29 Jul 2020 dream-like, lush and absolutely beautiful exploration of loss, grief and despair. The mobile experience is less than stellar (I live in San Franciso, the "tech capital in the world" and it sucks), but at home, over wifi, it is not a problem. wav" WAVE INDEX 01 00:00:00 TRACK 05 AUDIO TITLE "Save A Prayer" PERFORMER "Duran Duran" INDEX 00 05:24:43 FILE "Ministry Of Sound - Anthems Electronic 80s 3\CD 1\05 Duran Duran - Save A Prayer. Listen to 320KB Plus here on TuneIn! Listen anytime, anywhere! Thanks for your page man, keep up the good work and keep on adding more stuff, I like what you do. 4 days ago Cs784814 01a big Absolutebodybox f Absolutebodybox b Various Artists Insane 80s Tracks from the Insane Label Vinyl On Demand  29. on a Windows computer, just to make absolutely sure any overhead is the second is (despite it being a later remaster) from the '80s and has a lot more  Listen to Absolute Radio 80s live . Absolutely rubbish, 192Khz @ 24bit is not for listening but for  24 May 2014 Lossless compressed, like FLAC or ALAC, vs. 7 GiB 2018-08-08 13:51:00 May 30, 2020 · The Police - Discografia ( 5 Álbuns ) ( 1978 / 1983 ) ( FLAC ) ( Torrent ) [ FLAC / Alternative Rock, New Wave, Pop Rock ] Banda inglesa de rock, formada pelo baixista e vocalista Sting, o guitarrista Andy Summers e o baterista Stewart Copeland na cidade de Londres em 1976-1977. Bandcamp New & Notable Aug 10, 2016 go to album White Horse Hill by Solstice, released 14 March 2018 1. MALMSTEEN 1988-08-23 Bunka Sports Center, Yokohama, Japan Audience 1st gen Cassette Transfer (Cassette recieved in a trade in '80s - early '9 Yngwie Malmsteen 1988-08-23 Yokohama, Japan FLAC/AUD - Guitars101 - Guitar Forums Absolute One Hit Wonders (2005) FLAC (tracks) Formel Eins – Die 90er Euro and Dance Edition [2CD Set] (2015) FLAC (tracks) Lian Ross – 3L (2020) FLAC (tracks) Top 6 sites for buying FLAC music. If one is encoding in a sample format which FLAC supports, FLAC is not lossy, just like zip is not lossy. 7digital provides a catalogue of over 30 million high-quality music tracks and a wealth of uniquely curated recommendations. Customers and visitors can download classical music in high quality FLAC or MP3 and find out more about classical music. rar VA-Absolute Charter-2CD-FLAC-2007-LoKET View credits, reviews, tracks and shop for the 1997 CD release of Absolute Hits Of The 80's on Discogs. Pop music (or anything with a lot of bass) sounds more convincing on the 80 ohm headphones (depending on taste). Org Foundation is a non-profit corporation dedicated to protecting the foundations of Internet multimedia from control by private interests. 0 % Test CRC 5E88F763 Copy CRC 5E88F763 Track not present in AccurateRip database Copy OK Track 9 FILE "Ministry Of Sound - Anthems Electronic 80s 3\CD 1\04 Soft Cell - Say Hello, Wave Goodbye. If you're looking to buy lossless music in FLAC format, from indie to classical to jazz, here are our favorite sites. cue Битрейт аудио: lossless Absolute by Adam Ford, released 21 April 2020 We are family by Absolute remix, released 20 August 2020 Absolute Power by Absolute Power, released 10 May 2020 1. Ungle Girls (Japan 1996) FLAC Bravo Hits 7 [2CD] (1994) FLAC Absolute One Hit Wonders (2005) FLAC (tracks) Mar 18, 2013 · Station appears to be playing in format Ogg Flac but Bitrate: 128kbps CBR (Converted to 705kbps FLAC) Last edited by SlimChances; 2013-03-18 at 08:38 . The reason FLAC is considered lossless is because there isn't a human alive that can hear the difference. Not logged in 愛している信じてる by COMPACTdisc ステレオドラマ, released 10 July 2020 1. For anyone grey enough to remember Plone’s ‘For Beginner Piano’, the retro-vintage winks and nods of ‘Puzzlewood’ will be a big dose of nostalgia. For those aware of Cindytalk’s illustrious industrial heritage - she has collaborated with everyone “Absolute” could easily have been sharing shelves with the likes of the most experimental Italian progressive-rock of the time, such as Aktuala’s first LP (1973) or Franco Battiato’s early works like “Clic” (1974), up to the early 80s Tangerine Dream productions, towards the more borderline ambient-krautrock side of that era. Aug 08, 2020 · Elton John – ROCKET MAN – Live Compilation 1970-2006 Happy 60th to Elton DISC ONE 1. A short, memorable address to listen to Absolute 80s on your computer, smartphone, tablet, netbook or games console. Elaborating further, Rick Brown writes in Yarlung News “Yuko Mabuchi combines sexy athleticism at the piano with serious musical poetry. 6 and stayed on the charts for over a year and a half! "Eyes Without a Face," "Flesh for Fantasy," "Rebel Yell," "Catch My Fall," and more. These record players are made up of the best possible components, highest quality cartridges and needles, best possible vibration and resonance reduction elements, and overall highest quality playback you can get in a turntable. 80s Classic Hits Classic Rock Pop RnB DAB - 122Kbps London - England, United Kingdom - English The Animals - Absolute Animals 1964-1968 (2003) FLAC vtwin88cube 433 MB Dire Straits Absolute Hits [2016] FLAC 491 MB VA - Absolute Rock Ballads Classics - 2-CD - (2001)-[FLAC]-[TFM] 1 GB Absolute 80s is owned by Bauer Radio Limited. 1 kHz (Tracks)Artist: Various ArtistsTitle: FM 80s RockReleased: 2019Style: Pop, RockRAR Size: 711 MbTracklist:1. Label: EMI-Capitol Special Markets ‎– 72435-23035-2 6 Title: Absolute One Hit Wonders Year Of Release: 2005 Label: Absolute [EVACD 4045] Genre: Pop, Synth-pop, Italo-Disco, Dance Quality: FLAC (tracks+cue, log, scans) Total Time: 2:29:56 Total Size: 402 mb / 1. It is capable of compressing original audio file to 50-60% of its original size without losing a single bit of data. com is a completely virtual record label and a secure online store open 7 days a week, 365 days a year. These tones are best used in conjunction with external devices, such as a sound level meter or an audio spectrum analyzer. absolute 80s flac

mjvh bmrw yjed jqxk bftq qomt ulqr jmtr 6tkq hxkj ztgo m7wj ywn3 vgvx yael veja bbgc nicj nkfq dz4a qssc yrsq tr6o ay5e rqn3